Ивановский Торрент трекер
Яндекс.Погода
 

[Цитировать]
HUNTER

Богатырша«Самый сказочный блокбастер Нового года»- =Информация о мультфильме=
Страна: Россия
Жанр: мультфильм
Продолжительность: 01:15:52
Год выпуска: 2015
Перевод: Не требуется
Русские субтитры: нет
Режиссёр: Ольга Лопато
Роли озвучивали: : Анна Хилькевич (Роса, озвучка), Алексей Чумаков (средняя голова дракона, озвучка), Гарик Харламов (правая голова, озвучка), Тимур Батрутдинов (левая голова, озвучка), Михаил Пореченков (Бориполк, озвучка), Алёна Бабенко (Рогнеда, озвучка), Борис Щербаков (князь, озвучка), Мирослава Карпович (княжна, озвучка)-=Описание мультфильма=
И было предсказание славному витязю Бориполку, что у него родится сын, который станет великим воином и спасет Русь от великой напасти. Но, как всегда, все вышло наоборот: у героя родилась… дочка. А спасения Руси никто не отменял. И как сражаться с врагом, когда у него три головы, и каждая со своими выкрутасами?- -=Информация о файле=
Качество: BDRip-AVC [Bogatirsha.2015.BDRemux.(1080i).ExKinoRay]
Формат: MKV
Видео: AVC, 1024*428 (2,40:1), 3 450 kb/s, 25fps, 0.315 bit/pixel
Аудио: AC-3, 48.0 kHz, 448 kbps, 5.1 ch
Субтитры: отсутствуют

MediaInfo

Complete name : C:\11\Богатырша 2015. BDRip-AVC.mkv
Format : Matroska
Format version : Version 4 / Version 2
File size : 2.07 GiB
Duration : 1 h 15 min
Overall bit rate : 3 899 kb/s
Movie name : Богатырша 2015 - Rutracker
Encoded date : UTC 2017-03-15 17:09:30
Writing application : mkvmerge v9.9.0 ('Pick Up') 64bit
Writing library : libebml v1.3.4 + libmatroska v1.4.5
Cover : Yes
Attachments : cover.jpg
Video
ID : 1
Format : AVC
Format/Info : Advanced Video Codec
Format profile : [email protected]
Format settings, CABAC : Yes
Format settings, ReFrames : 10 frames
Codec ID : V_MPEG4/ISO/AVC
Duration : 1 h 15 min
Bit rate : 3 450 kb/s
Width : 1 024 pixels
Height : 428 pixels
Display aspect ratio : 2.40:1
Frame rate mode : Constant
Frame rate : 25.000 FPS
Color space : YUV
Chroma subsampling : 4:2:0
Bit depth : 8 bits
Scan type : Progressive
Bits/(Pixel*Frame) : 0.315
Stream size : 1.83 GiB (88%)
Writing library : x264 core 148 r2638 7599210
Encoding settings : cabac=1 / ref=10 / deblock=1:-3:-2 / analyse=0x3:0x133 / me=umh / subme=11 / psy=1 / psy_rd=1.00:0.15 / mixed_ref=1 / me_range=32 / chroma_me=1 / trellis=2 / 8x8dct=1 / cqm=0 / deadzone=21,11 / fast_pskip=1 / chroma_qp_offset=-3 / threads=6 / lookahead_threads=1 / sliced_threads=0 / nr=0 / decimate=1 / interlaced=0 / bluray_compat=0 / constrained_intra=0 / bframes=12 / b_pyramid=2 / b_adapt=2 / b_bias=0 / direct=3 / weightb=1 / open_gop=0 / weightp=2 / keyint=250 / keyint_min=25 / scenecut=40 / intra_refresh=0 / rc_lookahead=60 / rc=2pass / mbtree=1 / bitrate=3450 / ratetol=1.0 / qcomp=0.60 / qpmin=0 / qpmax=69 / qpstep=4 / cplxblur=20.0 / qblur=0.5 / vbv_maxrate=62500 / vbv_bufsize=78125 / nal_hrd=none / filler=0 / ip_ratio=1.40 / aq=1:1.00
Default : Yes
Forced : No
Audio
ID : 2
Format : AC-3
Format/Info : Audio Coding 3
Mode extension : CM (complete main)
Format settings, Endianness : Big
Codec ID : A_AC3
Duration : 1 h 15 min
Bit rate mode : Constant
Bit rate : 448 kb/s
Channel(s) : 6 channels
Channel positions : Front: L C R, Side: L R, LFE
Sampling rate : 48.0 kHz
Frame rate : 31.250 FPS (1536 spf)
Bit depth : 16 bits
Compression mode : Lossy
Stream size : 243 MiB (11%)
Title : АС-3, 448 Kbps, 5.1 ch
Language : Russian
Default : Yes
Forced : No
Menu
00:00:00.000 : :Chapter 01
00:01:14.720 : :Chapter 02
00:09:19.160 : :Chapter 03
00:19:57.280 : :Chapter 04
00:29:22.400 : :Chapter 05
00:36:22.720 : :Chapter 06
00:49:29.040 : :Chapter 07
00:55:15.920 : :Chapter 08
01:04:41.560 : :Chapter 09

x264

x264 [info]: frame I:1161 Avg QP:13.93 size:125480
x264 [info]: frame P:29748 Avg QP:18.28 size: 34951
x264 [info]: frame B:82902 Avg QP:23.36 size: 9377

Скриншоты

-


Показать сообщения:    

Текущее время: 23-Янв 04:02

Часовой пояс: UTC ± 0


Вы не можете начинать темы
Вы не можете отвечать на сообщения
Вы не можете редактировать свои сообщения
Вы не можете удалять свои сообщения
Вы не можете голосовать в опросах
Вы не можете прикреплять файлы к сообщениям
Вы не можете скачивать файлы

!ВНИМАНИЕ!
Сайт не предоставляет электронные версии произведений, а занимается лишь коллекционированием и каталогизацией ссылок, присылаемых и публикуемых на форуме нашими читателями. Если вы являетесь правообладателем какого-либо представленного материала и не желаете, чтобы ссылка на него находилась в нашем каталоге, свяжитесь с нами, и мы незамедлительно удалим ее. Файлы для обмена на трекере предоставлены пользователями сайта, и администрация не несет ответственности за их содержание. Просьба не заливать файлы, защищенные авторскими правами, а также файлы нелегального содержания!